Details for this torrent 

Have access to webhosting? Host your own proxy

Frankensteins.Army.2013 WEBRip XViD juggs
Type:
Video > Movies
Files:
4
Size:
705.57 MiB (739845994 Bytes)
Spoken language(s):
English
Uploaded:
2013-07-28 22:32:32 GMT
By:
juggs99 VIP
Seeders:
21
Leechers:
10
Comments
8  

Info Hash:
 
CE558A7C7C7DB441FDF8B0611B02F36D696BC127




(Problems with magnets links are fixed by upgrading your torrent client!)
Format                                   : AVI
Format/Info                              : Audio Video Interleave
File size                                : 697 MiB
Duration                                 : 1h 24mn
Overall bit rate                         : 1 160 Kbps
Writing library                          : VirtualDub build 32842/release

Video
ID                                       : 0
Format                                   : MPEG-4 Visual
Format profile                           : Advanced Simple@L5
Format settings, BVOP                    : 2
Format settings, QPel                    : No
Format settings, GMC                     : No warppoints
Format settings, Matrix                  : Default (H.263)
Muxing mode                              : Packed bitstream
Codec ID                                 : XVID
Codec ID/Hint                            : XviD
Duration                                 : 1h 24mn
Bit rate                                 : 1 023 Kbps
Width                                    : 640 pixels
Height                                   : 352 pixels
Display aspect ratio                     : 16:9
Frame rate                               : 23.976 fps
Color space                              : YUV
Chroma subsampling                       : 4:2:0
Bit depth                                : 8 bits
Scan type                                : Progressive
Compression mode                         : Lossy
Bits/(Pixel*Frame)                       : 0.189
Stream size                              : 615 MiB (88%)
Writing library                          : XviD 64

Audio
ID                                       : 1
Format                                   : MPEG Audio
Format version                           : Version 1
Format profile                           : Layer 3
Codec ID                                 : 55
Codec ID/Hint                            : MP3
Duration                                 : 1h 24mn
Bit rate mode                            : Constant
Bit rate                                 : 128 Kbps
Channel(s)                               : 2 channels
Sampling rate                            : 48.0 KHz
Compression mode                         : Lossy
Stream size                              : 76.9 MiB (11%)
Alignment                                : Split accross interleaves
Interleave, duration                     : 42 ms (1.00 video frame)
Interleave, preload duration             : 500 ms
Writing library                          : LAME3.99r
 
http://www.shotpix.com/photos/20130728137504332152221.png 
http://www.shotpix.com/photos/20130728137504332504116.png 
http://www.shotpix.com/photos/20130728137504332175311.png		

Comments

Apparantly this movie doesnt completely suck donkeyballs so I'm giving it a go
thanks for the up.
A/V: 8
(fyi: movie is BS!)
A - A bit weak but not cam.

V - Good

M - It's basicly props and costume porn. Not that weird though considering who mad it. The costumes, props and all non CGI SFX are fucking fantastic. The story is sort of non existing and acting is pretty bad. I still would have given this big thumbs up if it wasn't for the fact that he made the full retard choice of shooting the whole fucking movie in shaky "Found footage" style. Makes you wanna punch the screen after a while.
The monsters looked pretty cool but they should have made a good solid action film with the monsters, some badass guy who kills them one by one like in some videogame (Return to Castle Wolfstein) that would have been something!
Frankenstein leading an army of zombies amidst a war between vampires and werewolves... Now that would be a movie.
This movie defines ScHlocK Its so deliberatly tacky that it is great. Ed Woods on steroids....with a little Terantino tossed in...a literal train wreck that you cant stop watching...SiGh
the quality is pretty good and the movie entertains enough.
still better than the typical Hollywood nonsense shit.
Powered by Unblock The Pirate Bay v2 - Get your Own



eXTReMe Tracker