Details for this torrent 

Have access to webhosting? Host your own proxy

Grown Ups 2 2013 READNFO TS XViD AC3-FREE
Type:
Video > Movies
Files:
3
Size:
732.59 MiB (768172283 Bytes)

Info:
IMDB
Spoken language(s):
English
Tag(s):
Grown Ups 2013 Comedy

Uploaded:
2013-07-24 07:56:37 GMT
By:
xxxlavalxxx VIP

Seeders:
1020
Leechers:
9
Comments
198  

Info Hash:
 
FAF2F5CF641FA2444F4ACE899974BA2401C7992F
picture




(Problems with magnets links are fixed by upgrading your torrent client!)
 http://www.imdb.com/title/tt2191701/



After moving his family back to his hometown to be with his friends and their kids, Lenny finds out that between old bullies, new bullies, schizo bus drivers, drunk cops on skis, and 400 costumed party crashers sometimes crazy follows you. 



Director:
 Dennis Dugan 

Writers:
 Fred Wolf, Adam Sandler

Stars:
 Adam Sandler, Kevin James, Chris Rock 

Genres:
  Comedy 

Country:
 USA 

Language:
 English 





Source  aoe / A FRiEND

 Notes done NOTHING to vid, all i did was sync line audio to it and remux

 Media Info
 Grown Ups 2 2013 READNFO TS XViD AC3-FREE.avi
 Format                                   : AVI
 Format/Info                              : Audio Video Interleave
 File size                                : 733 MiB
 Duration                                 : 1h 34mn
 Overall bit rate                         : 1 086 Kbps
 Writing library                          : VirtualDub build 32661/release

 Video
 ID                                       : 0
 Format                                   : MPEG-4 Visual
 Format profile                           : Advanced Simple@L5
 Format settings, BVOP                    : 2
 Format settings, QPel                    : No
 Format settings, GMC                     : No warppoints
 Format settings, Matrix                  : Default (H.263)
 Codec ID                                 : XVID
 Codec ID/Hint                            : XviD
 Duration                                 : 1h 34mn
 Bit rate                                 : 885 Kbps
 Width                                    : 640 pixels
 Height                                   : 352 pixels
 Display aspect ratio                     : 16:9
 Frame rate                               : 25.000 fps
 Color space                              : YUV
 Chroma subsampling                       : 4:2:0
 Bit depth                                : 8 bits
 Scan type                                : Progressive
 Compression mode                         : Lossy
 Bits/(Pixel*Frame)                       : 0.157
 Stream size                              : 597 MiB (81%)
 Writing library                          : XviD 1.2.1 (UTC 2008-12-04)

 Audio
 ID                                       : 1
 Format                                   : AC-3
 Format/Info                              : Audio Coding 3
 Mode extension                           : CM (complete main)
 Format settings, Endianness              : Big
 Codec ID                                 : 2000
 Duration                                 : 1h 34mn
 Bit rate mode                            : Constant
 Bit rate                                 : 192 Kbps
 Channel(s)                               : 2 channels
 Channel positions                        : Front: L R
 Sampling rate                            : 48.0 KHz
 Bit depth                                : 16 bits
 Compression mode                         : Lossy
 Delay relative to video                  : 1s 400ms
 Stream size                              : 129 MiB (18%)
 Alignment                                : Split accross interleaves
 Interleave, duration                     : 40 ms (1.00 video frame)
 Interleave, preload duration             : 500 ms




screens


    	http://addpix.net/viewer.php?file=29683192390926853957.jpg
    	http://addpix.net/viewer.php?file=02663269948205018624.jpg
    	http://addpix.net/viewer.php?file=95747393518557604956.jpg
    	http://addpix.net/viewer.php?file=03709594718663803657.jpg
    	http://addpix.net/viewer.php?file=95782363912152775910.jpg		

Comments

Previous 1 2 3 4 5 6 7 8
Powered by Unblock The Pirate Bay v2 - Get your Own



eXTReMe Tracker