Details for this torrent 

Have access to webhosting? Host your own proxy

Chris Brown - Sweet Love (h264/mp4)
Type:
Video > Music videos
Files:
1
Size:
78.6 MiB (82418734 Bytes)
Tag(s):
Chris Brown
Uploaded:
2012-05-29 05:07:07 GMT
By:
MusicVideos-HQ Trusted
Seeders:
1
Leechers:
0
Comments
0  

Info Hash:
 
09F04EDD5824FAE8B955A55B4500D133106970A4




(Problems with magnets links are fixed by upgrading your torrent client!)
General

Format                           : MPEG-4
Format profile                   : Base Media
Codec ID                         : isom
File size                        : 78.6 MiB
Duration                         : 3mn 24s
Overall bit rate                 : 3 220 Kbps
Encoded date                     : UTC 2012-05-28 16:24:26
Tagged date                      : UTC 2012-05-28 16:24:26

Video
ID                               : 1
Format                           : AVC
Format/Info                      : Advanced Video Codec
Format profile                   : High@L3.0
Format settings, CABAC           : Yes
Format settings, ReFrames        : 2 frames
Codec ID                         : avc1
Codec ID/Info                    : Advanced Video Coding
Duration                         : 3mn 24s
Bit rate mode                    : Variable
Bit rate                         : 3 009 Kbps
Maximum bit rate                 : 6 667 Kbps
Width                            : 720 pixels
Height                           : 480 pixels
Display aspect ratio             : 16:9
Original display aspect ratio    : 16:9
Frame rate mode                  : Constant
Frame rate                       : 23.976 fps
Standard                         : NTSC
Color space                      : YUV
Chroma subsampling               : 4:2:0
Bit depth                        : 8 bits
Scan type                        : Progressive
Bits/(Pixel*Frame)               : 0.363
Stream size                      : 76.8 MiB (98%)


Audio
ID                               : 2
Format                           : AAC
Format/Info                      : Advanced Audio Codec
Format profile                   : LC
Codec ID                         : 40
Duration                         : 3mn 24s
Bit rate mode                    : Variable
Bit rate                         : 66.15 Kbps
Maximum bit rate                 : 79.8 Kbps
Channel(s)                       : 2 channels
Channel positions                : Front: L R
Sampling rate                    : 44.1 KHz
Compression mode                 : Lossy
Stream size                      : 1.63 MiB (2%)		

Powered by Unblock The Pirate Bay v2 - Get your Own



eXTReMe Tracker